• WAP手机版 RSS订阅 加入收藏  设为首页
好歌推荐

下辈子不要再遇见你(ape无损音质)

时间:2012/7/15 10:55:42   作者:未知   来源:网络转载   阅读:952   评论:0
内容摘要:唱片公司:艾格美唱片发行时间:2011年04月21日资源格式:APE+CUE

ed2k://|file|%E8%89%BE%E6%AD%8C.-.[%E4%B8%8B%E8%BE%88%E5%AD%90%E4%B8%8D%E8%A6%81%E5%86%8D%E9%81%87%E8%A7%81%E4%BD%A0].%E4%B8%93%E8%BE%91.(APE).ape|211473230|1625E197F0312BF3750ACE61F6D7C07D|h=QAS2OWTUGN7GBPFATQSALTTRR64PDACA|/

复制到电驴或者迅雷等下载

唱片公司:艾格美唱片
发行时间:2011年04月21日
资源格式:APE+CUE

试听连接:
http://home.VeryCD.com/space.php?uid=82732...d=560382

下面是cue 文件 复制到记事本 后缀改为.cue


PERFORMER "艾歌"
TITLE "下辈子不要再遇见你"
REM DATE 2011
REM DISCID 65083A08
REM COMMENT "ExactAudioCopy v0.99pb5"
FILE "艾歌.-.[下辈子不要再遇见你].专辑.(APE).ape" WAVE
TRACK 01 AUDIO
TITLE "一生中最爱的人"
PERFORMER "艾歌"
REM DATE 2011
FLAGS DCP
INDEX 01 00:00:00
TRACK 02 AUDIO
TITLE "你怎么舍得我流泪"
PERFORMER "艾歌"
REM DATE 2011
FLAGS DCP
INDEX 00 04:04:50
INDEX 01 04:06:50
TRACK 03 AUDIO
TITLE "你是我今生的唯一"
PERFORMER "艾歌"
REM DATE 2011
FLAGS DCP
INDEX 00 08:30:64
INDEX 01 08:32:64
TRACK 04 AUDIO
TITLE "全世界都知道你变了心"
PERFORMER "艾歌"
REM DATE 2011
FLAGS DCP
INDEX 00 13:08:31
INDEX 01 13:10:31
TRACK 05 AUDIO
TITLE "如果可以不爱你艾歌"
PERFORMER "艾歌"
REM DATE 2011
FLAGS DCP
INDEX 00 17:24:32
INDEX 01 17:26:32
TRACK 06 AUDIO
TITLE "我的爱只给你一个"
PERFORMER "艾歌"
REM DATE 2011
FLAGS DCP
INDEX 00 22:41:54
INDEX 01 22:43:54
TRACK 07 AUDIO
TITLE "一个人的脚步"
PERFORMER "艾歌"
REM DATE 2011
FLAGS DCP
INDEX 00 27:07:09
INDEX 01 27:09:09
TRACK 08 AUDIO
TITLE "下辈子不要再遇见你"
PERFORMER "艾歌"
REM DATE 2011
FLAGS DCP
INDEX 00 30:41:71
INDEX 01 30:43:71


相关评论

Copyright © 2012-2020   www.art1993.com  All Rights Reserved