• WAP手机版 RSS订阅 加入收藏  设为首页
好歌推荐

群星.-.[静听女人心HDCD2].专辑.(FLAC)

时间:2012/12/1 13:23:30   作者:本站   来源:红色长廊   阅读:1203   评论:0
内容摘要:文件下载地址:ed2k://|file|%E7%BE%A4%E6%98%9F.-.[%E9%9D%99%E5%90%AC%E5%A5%B3%E4%BA%BA%E5%BF%83HDCD2].%E4%B8%93%E8%BE%91.(FLAC).flac|437318764|F8757...

文件下载地址:

ed2k://|file|%E7%BE%A4%E6%98%9F.-.[%E9%9D%99%E5%90%AC%E5%A5%B3%E4%BA%BA%E5%BF%83HDCD2].%E4%B8%93%E8%BE%91.(FLAC).flac|437318764|F8757BC797AC7079577D112546CB7CC2|/

 

复制到电驴或者迅雷等软件。

文件大小:417MB

文件格式:FLAC

文件CUE文件

REM DATE 2012
PERFORMER "群星"
TITLE "静听女人心HDCD2"
FILE "群星.-.[静听女人心HDCD2].专辑.(FLAC).flac" WAVE
  TRACK 01 AUDIO
    TITLE "渡口"
    PERFORMER "蔡琴"
    INDEX 01 00:00:00
  TRACK 02 AUDIO
    TITLE "天空"
    PERFORMER "王菲"
    INDEX 00 03:47:24
    INDEX 01 03:49:24
  TRACK 03 AUDIO
    TITLE "风铃"
    PERFORMER "周惠"
    INDEX 00 08:10:33
    INDEX 01 08:12:33
  TRACK 04 AUDIO
    TITLE "爱如潮水"
    PERFORMER "蔡淳佳"
    INDEX 00 12:47:25
    INDEX 01 12:49:25
  TRACK 05 AUDIO
    TITLE "毒药"
    PERFORMER "那英"
    INDEX 00 17:08:31
    INDEX 01 17:10:31
  TRACK 06 AUDIO
    TITLE "铁窗"
    PERFORMER "许美静"
    INDEX 00 20:38:69
    INDEX 01 20:40:69
  TRACK 07 AUDIO
    TITLE "让每个人都心碎"
    PERFORMER "张惠妹"
    INDEX 00 25:42:57
    INDEX 01 25:44:57
  TRACK 08 AUDIO
    TITLE "三年"
    PERFORMER "蔡琴"
    INDEX 00 30:55:30
    INDEX 01 30:57:30
  TRACK 09 AUDIO
    TITLE "几多愁"
    PERFORMER "邓丽君"
    INDEX 00 35:22:04
    INDEX 01 35:24:04
  TRACK 10 AUDIO
    TITLE "别亦难"
    PERFORMER "徐小凤"
    INDEX 00 38:56:49
    INDEX 01 38:58:49
  TRACK 11 AUDIO
    TITLE "雪中莲"
    PERFORMER "王菲"
    INDEX 00 42:31:61
    INDEX 01 42:33:61
  TRACK 12 AUDIO
    TITLE "追梦人"
    PERFORMER "凤飞飞"
    INDEX 00 46:00:70
    INDEX 01 46:02:70
  TRACK 13 AUDIO
    TITLE "滚滚红尘"
    PERFORMER "陈淑桦"
    INDEX 00 49:54:07
    INDEX 01 49:56:07
  TRACK 14 AUDIO
    TITLE "伤痕"
    PERFORMER "林忆莲"
    INDEX 00 53:05:00
    INDEX 01 53:07:00
  TRACK 15 AUDIO
    TITLE "感恩的心"
    PERFORMER "欧阳菲菲"
    INDEX 00 59:14:60
    INDEX 01 59:16:60
  TRACK 16 AUDIO
    TITLE "电台情歌"
    PERFORMER "莫文蔚"
    INDEX 00 64:08:12
    INDEX 01 64:10:12

 


本页内容来自网络,如侵犯你的权益,请联系站长,我们会删除此内容。

相关评论

Copyright © 2012-2020   www.art1993.com  All Rights Reserved