• WAP手机版 RSS订阅 加入收藏  设为首页
好歌推荐

孙燕姿&张惠妹.-.[2.her].专辑.(FLAC)

时间:2013/2/22 18:26:19   作者:本站   来源:红色长廊   阅读:1136   评论:0
内容摘要:ed2k://|file|孙燕姿.&.张惠妹.-.[2.her].专辑.(FLAC)[ED2000.COM].rar|456158372|d0026b386011f20ae5e2747c838e1150|h=LQF6GTAEHOL3MJNVNXTX73GMTX5EJWKC...

ed2k://|file|孙燕姿.&.张惠妹.-.[2.her].专辑.(FLAC)[ED2000.COM].rar|456158372|d0026b386011f20ae5e2747c838e1150|h=LQF6GTAEHOL3MJNVNXTX73GMTX5EJWKC|/

孙燕姿&张惠妹.-.[2.her].专辑.(FLAC)

 

cue文件

REM GENRE Pop

REM DATE 2009

REM COMMENT ExactAudioCopy v0.99pb5

PERFORMER "孙燕姿/张惠妹"

TITLE "2 Her"

FILE "孙燕姿.&.张惠妹.-.[2 her].专辑.(FLAC).flac" WAVE

  TRACK 01 AUDIO

    TITLE "遇见"

    PERFORMER "孙燕姿"

    INDEX 01 00:00:00

  TRACK 02 AUDIO

    TITLE "记得"

    PERFORMER "张惠妹"

    INDEX 00 03:28:65

    INDEX 01 03:31:27

  TRACK 03 AUDIO

    TITLE "我的爱"

    PERFORMER "孙燕姿"

    INDEX 00 08:15:17

    INDEX 01 08:20:32

  TRACK 04 AUDIO

    TITLE "你好不好"

    PERFORMER "张惠妹"

    INDEX 00 12:40:22

    INDEX 01 12:44:20

  TRACK 05 AUDIO

    TITLE "我也很想他"

    PERFORMER "孙燕姿"

    INDEX 00 16:34:10

    INDEX 01 16:37:05

  TRACK 06 AUDIO

    TITLE "人质"

    PERFORMER "张惠妹"

    INDEX 00 20:50:10

    INDEX 01 20:54:35

  TRACK 07 AUDIO

    TITLE "害怕"

    PERFORMER "孙燕姿"

    INDEX 00 24:40:00

    INDEX 01 24:43:72

  TRACK 08 AUDIO

    TITLE "我恨我爱你"

    PERFORMER "张惠妹"

    INDEX 00 28:43:17

    INDEX 01 28:47:17

  TRACK 09 AUDIO

    TITLE "任性"

    PERFORMER "孙燕姿"

    INDEX 00 33:15:55

    INDEX 01 33:19:55

  TRACK 10 AUDIO

    TITLE "我为什么那么爱你"

    PERFORMER "张惠妹"

    INDEX 01 37:04:55

    INDEX 01 37:08:17

  TRACK 11 AUDIO

    TITLE "天黑黑"

    PERFORMER "孙燕姿"

    INDEX 00 42:01:67

    INDEX 01 42:05:67

  TRACK 12 AUDIO

    TITLE "勇敢"

    PERFORMER "张惠妹"

    INDEX 00 45:54:60

    INDEX 01 45:58:60

  TRACK 13 AUDIO

    TITLE "我不难过"

    PERFORMER "孙燕姿"

    INDEX 00 49:59:12

    INDEX 01 50:02:12

  TRACK 14 AUDIO

    TITLE "真实"

    PERFORMER "张惠妹"

    INDEX 00 55:20:52

    INDEX 01 55:23:52

  TRACK 15 AUDIO

    TITLE "我要的幸福"

    PERFORMER "孙燕姿"

    INDEX 00 59:56:15

    INDEX 01 60:00:15

  TRACK 16 AUDIO

    TITLE "我要快乐"

    PERFORMER "张惠妹"

    INDEX 00 63:30:57

    INDEX 01 63:33:57

  TRACK 17 AUDIO

    TITLE "记得/我也很想他/人质/天黑黑/真实/我要的幸福/我要快乐)"

    PERFORMER "孙燕姿/张惠妹"

    INDEX 01 67:46:67

 

注:下载的cue文件有问题的话可以用上面的


本页内容来自网络,如侵犯你的权益,请联系站长,我们会删除此内容。

相关评论

Copyright © 2012-2020   www.art1993.com  All Rights Reserved